<?xml version="1.0" standalone="no"?>
<!DOCTYPE svg PUBLIC "-//W3C//DTD SVG 1.1//EN" "http://www.w3.org/Graphics/SVG/1.1/DTD/svg11.dtd" >
<svg xmlns="http://www.w3.org/2000/svg">
<metadata></metadata>
<defs>
<font id="aileronsemibold" horiz-adv-x="1230" >
<font-face units-per-em="2048" ascent="1577" descent="-471" />
<missing-glyph horiz-adv-x="421" />
<glyph unicode="&#xfb01;" horiz-adv-x="1142" d="M43 922v157h117v25q0 90 4 127q15 155 126.5 234t340.5 79q77 0 141 -12v-168q-202 15 -286.5 -18.5t-96.5 -126.5q-6 -43 -6 -103v-37h612v-1079h-223v922h-389v-922h-223v922h-117z" />
<glyph unicode="&#xfb02;" horiz-adv-x="1128" d="M43 922v157h96v25q0 86 4 123q32 317 453 317q223 0 354 -45v-1167q0 -70 2 -103q4 -51 33 -68t98 -9v-154q-82 -10 -153 -10q-92 0 -144.5 41.5t-56.5 140.5q-2 41 -2 156v1042q-52 12 -137 12q-201 0 -221 -161q-7 -51 -7 -103v-37h224v-157h-224v-922h-223v922h-96z " />
<glyph horiz-adv-x="2048" />
<glyph horiz-adv-x="2048" />
<glyph unicode="&#xd;" horiz-adv-x="2048" />
<glyph unicode=" "  horiz-adv-x="421" />
<glyph unicode="&#x09;" horiz-adv-x="421" />
<glyph unicode="&#xa0;" horiz-adv-x="421" />
<glyph unicode="!" horiz-adv-x="516" d="M109 121q0 65 42.5 107t106.5 42q65 0 107.5 -42.5t42.5 -106.5q0 -65 -43 -107.5t-107 -42.5t-106.5 42.5t-42.5 107.5zM137 1413h240l-25 -1018h-190z" />
<glyph unicode="&#x22;" horiz-adv-x="731" d="M147 1505h215l-24 -534h-168zM459 1505h215l-23 -534h-168z" />
<glyph unicode="#" d="M143 440v135h211l56 265h-205v135h233l94 438h142l-94 -438h184l94 438h141l-94 -438h180v-135h-208l-56 -265h203v-135h-233l-93 -440h-141l92 440h-184l-92 -440h-142l93 440h-181zM496 575h184l55 265h-184z" />
<glyph unicode="$" d="M102 389h230q14 -100 71.5 -163.5t153.5 -80.5v476q-98 29 -168 63.5t-124.5 83.5t-81.5 115.5t-27 152.5q0 173 112 277.5t289 124.5v159h139v-157q185 -18 291 -128.5t127 -279.5h-229q-23 204 -189 236v-445q231 -73 329.5 -177.5t98.5 -270.5q0 -113 -56.5 -200.5 t-152 -137t-219.5 -62.5v-159h-139v157q-203 15 -324 123t-131 293zM381 1065q0 -88 42 -137.5t134 -81.5v424q-83 -15 -129.5 -67.5t-46.5 -137.5zM696 143q199 26 199 211q0 83 -45.5 142.5t-153.5 95.5v-449z" />
<glyph unicode="%" horiz-adv-x="1538" d="M80 1106q0 153 83 241.5t226 88.5q142 0 225.5 -88.5t83.5 -241.5t-83.5 -242.5t-225.5 -89.5q-143 0 -226 89t-83 243zM215 0l918 1413h196l-917 -1413h-197zM264 1106q0 -95 33 -146t92 -51q58 0 91.5 51.5t33.5 145.5t-33.5 144t-91.5 50q-59 0 -92 -50t-33 -144z M840 303q0 153 83.5 241.5t225.5 88.5q143 0 226 -88.5t83 -241.5q0 -154 -83 -243t-226 -89q-142 0 -225.5 89.5t-83.5 242.5zM1024 303q0 -94 33.5 -145.5t91.5 -51.5q59 0 92 51t33 146q0 94 -33 144.5t-92 50.5q-58 0 -91.5 -50.5t-33.5 -144.5z" />
<glyph unicode="&#x26;" horiz-adv-x="1357" d="M121 365q0 127 89 219t243 118q-120 37 -197.5 136t-77.5 213q0 176 138 283.5t378 107.5q123 0 240 -21v-172q-110 21 -242 21q-126 0 -198 -59.5t-72 -157.5q0 -123 65.5 -191.5t171.5 -73.5q37 -2 127 -2h105v232h225v-232h195v-180h-195v-602q-182 -33 -436 -33 q-129 0 -227.5 20t-175 64.5t-116.5 122.5t-40 187zM365 377q0 -121 78.5 -177.5t240.5 -56.5q108 0 207 11v452h-109q-79 0 -120 -4q-150 -13 -223.5 -71.5t-73.5 -153.5z" />
<glyph unicode="'" horiz-adv-x="382" d="M82 1505h215l-25 -534h-168z" />
<glyph unicode="(" horiz-adv-x="690" d="M215 717q0 253 69.5 480.5t196.5 399.5h133q-249 -402 -249 -880q0 -479 249 -881h-133q-127 171 -196.5 400t-69.5 481z" />
<glyph unicode=")" horiz-adv-x="688" d="M66 -164q249 402 249 881q0 478 -249 880h133q127 -172 196.5 -399.5t69.5 -480.5q0 -252 -69.5 -481t-196.5 -400h-133z" />
<glyph unicode="*" horiz-adv-x="1183" d="M188 598l48 147l301 -120l-23 348h156l-23 -348l301 120l47 -147l-313 -78l225 -268l-125 -92l-190 299l-191 -299l-125 92l226 268z" />
<glyph unicode="+" d="M178 582v131h367v415h141v-415h367v-131h-367v-412h-141v412h-367z" />
<glyph unicode="," horiz-adv-x="501" d="M-63 -248l161 490h228v-21l-193 -469h-196z" />
<glyph unicode="-" horiz-adv-x="581" d="M66 512v135h450v-135h-450z" />
<glyph unicode="." horiz-adv-x="501" d="M78 121q0 65 42 107t107 42t107.5 -42.5t42.5 -106.5q0 -65 -42.5 -107.5t-107.5 -42.5q-64 0 -106.5 42.5t-42.5 107.5z" />
<glyph unicode="/" horiz-adv-x="643" d="M-10 -61l514 1536h149l-514 -1536h-149z" />
<glyph unicode="0" d="M86 707q0 735 528 735q529 0 529 -735q0 -736 -529 -736q-115 0 -205.5 36t-150.5 100.5t-99 158t-56 202t-17 239.5zM330 707q0 -279 68.5 -421.5t215.5 -142.5q149 0 217 142.5t68 421.5q0 282 -68 422.5t-217 140.5q-148 0 -216 -141t-68 -422z" />
<glyph unicode="1" d="M276 840v239l457 334h152v-1413h-226v1122z" />
<glyph unicode="2" d="M106 0v156l517 467q136 122 195 213.5t59 191.5q0 106 -59 175t-169 69q-121 0 -193 -75t-81 -214h-234q8 204 149.5 332.5t366.5 128.5q220 0 341.5 -114.5t121.5 -293.5q0 -78 -18 -141.5t-64 -129.5t-104.5 -127t-159.5 -151l-342 -307h676v-180h-1002z" />
<glyph unicode="3" d="M102 406h234q21 -126 97.5 -194.5t184.5 -68.5q121 0 195 67.5t74 176.5q0 241 -303 244h-41v178h41q126 3 205 66t79 178q0 100 -58.5 158.5t-162.5 58.5q-100 0 -169.5 -65t-86.5 -187h-235q17 194 151 309t352 115q210 0 331.5 -101.5t121.5 -261.5q0 -122 -70.5 -208 t-191.5 -119q134 -37 207 -129t73 -228q0 -130 -68.5 -227t-185.5 -147t-264 -50q-213 0 -352.5 112.5t-157.5 322.5z" />
<glyph unicode="4" d="M70 305v148l678 960h237v-928h176v-180h-176v-305h-223v305h-692zM317 485h445v654q-50 -89 -107 -168z" />
<glyph unicode="5" d="M109 389h233q13 -118 87.5 -182t191.5 -64q118 0 195 84t77 226q0 144 -74 229.5t-203 85.5q-93 0 -157 -43t-109 -139h-211l90 827h848v-178h-661l-54 -449l82 99q93 55 215 55q229 0 353.5 -131t124.5 -346q0 -120 -43.5 -216t-116.5 -155t-163.5 -90t-190.5 -31 q-227 0 -358.5 104t-155.5 314z" />
<glyph unicode="6" d="M94 649q0 166 28 299t78 224.5t121 152.5t153.5 89t178.5 28q396 0 467 -375h-233q-46 203 -232 203q-73 0 -128.5 -27t-99 -88t-68 -165.5t-29.5 -252.5l78 129q56 46 117.5 66t142.5 20q217 0 339.5 -133t122.5 -342q0 -229 -148 -367.5t-370 -138.5q-518 0 -518 678z M344 459q0 -137 73.5 -226.5t194.5 -89.5q122 0 198.5 87.5t76.5 224.5q0 145 -69.5 235t-207.5 90q-113 0 -189.5 -84.5t-76.5 -236.5z" />
<glyph unicode="7" d="M106 1235v178h1037v-158l-692 -1255h-242l686 1235h-789z" />
<glyph unicode="8" d="M92 383q0 126 73 219.5t185 130.5q-95 38 -152 121t-57 197q0 175 135 283t353 108q219 0 353 -108t134 -283q0 -113 -64 -196.5t-163 -119.5q110 -38 179 -131.5t69 -220.5q0 -110 -43.5 -192.5t-118.5 -129.5t-165.5 -69.5t-195.5 -22.5q-107 0 -198 22.5t-165 69.5 t-116.5 129.5t-42.5 192.5zM336 385q0 -112 77 -178t205 -66q130 0 202.5 65.5t72.5 178.5q0 108 -69.5 179t-207.5 71q-136 0 -208 -71t-72 -179zM385 1040q0 -104 64 -168.5t178 -64.5q115 0 180 64.5t65 168.5q0 99 -64.5 164.5t-178.5 65.5q-113 0 -178.5 -65.5 t-65.5 -164.5z" />
<glyph unicode="9" d="M90 936q0 229 148 367.5t370 138.5q518 0 518 -678q0 -166 -28 -299t-78 -224.5t-121 -152.5t-153.5 -89t-178.5 -28q-396 0 -467 375h234q22 -100 78 -151.5t153 -51.5q73 0 128.5 27t99 87.5t68.5 165.5t30 253l-78 -129q-56 -46 -117.5 -66t-142.5 -20 q-217 0 -340 133t-123 342zM334 958q0 -145 69 -235t207 -90q113 0 190 84.5t77 236.5q0 137 -74 226.5t-195 89.5q-122 0 -198 -87.5t-76 -224.5z" />
<glyph unicode=":" horiz-adv-x="501" d="M78 121q0 65 42 107t107 42t107.5 -42.5t42.5 -106.5q0 -65 -42.5 -107.5t-107.5 -42.5q-64 0 -106.5 42.5t-42.5 107.5zM78 967q0 65 42 107t107 42t107.5 -42.5t42.5 -106.5q0 -65 -42.5 -107.5t-107.5 -42.5q-64 0 -106.5 42.5t-42.5 107.5z" />
<glyph unicode=";" horiz-adv-x="501" d="M-63 -248l161 506h230v-29l-195 -477h-196zM78 967q0 65 42 107t107 42t107.5 -42.5t42.5 -106.5q0 -65 -42.5 -107.5t-107.5 -42.5q-64 0 -106.5 42.5t-42.5 107.5z" />
<glyph unicode="&#x3c;" d="M213 457v174l858 399v-166l-713 -319l713 -320v-168z" />
<glyph unicode="=" d="M168 377v131h895v-131h-895zM168 786v132h895v-132h-895z" />
<glyph unicode="&#x3e;" d="M141 57v164l711 320l-711 319v170l856 -399v-174z" />
<glyph unicode="?" horiz-adv-x="1069" d="M70 1001q6 202 137 321.5t344 119.5q209 0 326.5 -104.5t117.5 -274.5q0 -110 -51.5 -205.5t-163.5 -202.5q-89 -86 -121 -138.5t-38 -121.5h-207q7 90 41 158t114 160q105 118 144 189.5t39 152.5q0 99 -55.5 157t-155.5 58q-106 0 -169.5 -68.5t-72.5 -200.5h-229z M369 121q0 65 42.5 107t106.5 42q65 0 107.5 -42.5t42.5 -106.5q0 -65 -43 -107.5t-107 -42.5t-106.5 42.5t-42.5 107.5z" />
<glyph unicode="@" horiz-adv-x="1785" d="M104 502q0 158 47.5 298t131 244.5t194 181t239 115.5t263.5 39q206 0 364 -90t242 -247t84 -355q0 -138 -37.5 -244.5t-101 -169t-139 -93.5t-158.5 -31q-93 0 -154 40.5t-78 122.5l-47 -96q-95 -76 -198 -76q-54 0 -102.5 17t-91 54t-68 104.5t-25.5 158.5 q0 137 53.5 255t153.5 190.5t223 72.5q119 0 174 -61l21 -105l39 129h200l-112 -473q-17 -69 -17 -106q0 -88 80 -88q96 0 166 102.5t70 288.5q0 135 -42 242.5t-116.5 176.5t-174 105.5t-216.5 36.5q-105 0 -208 -31t-194.5 -93t-161 -148.5t-110.5 -205.5t-41 -255 q0 -285 162.5 -441.5t425.5 -156.5q131 0 262.5 40t236.5 116l58 -117q-136 -92 -283 -134t-284 -42q-112 0 -216.5 27t-198 85t-163.5 142t-111 206t-41 269zM696 489q0 -184 123 -184q69 0 123 61t74 146l22 96q26 114 -6 167.5t-104 53.5q-103 0 -167.5 -101t-64.5 -239z " />
<glyph unicode="A" horiz-adv-x="1343" d="M47 0l508 1413h291l493 -1413h-243l-156 467h-500l-153 -467h-240zM500 645h383l-187 582z" />
<glyph unicode="B" horiz-adv-x="1312" d="M195 0v1413h497q114 0 182 -8q171 -23 260 -112t89 -236q0 -236 -250 -314q137 -38 201.5 -125.5t64.5 -232.5q0 -84 -31 -152.5t-84.5 -113t-118 -71.5t-137.5 -38q-70 -10 -186 -10h-487zM418 180h278q72 0 99 2q93 8 149.5 62.5t56.5 152.5q0 102 -55 158.5t-149 67.5 q-43 6 -109 6h-270v-449zM418 809h266q57 0 109 8q93 13 142.5 67.5t49.5 141.5q0 91 -51 142.5t-139 60.5q-52 6 -109 6h-268v-426z" />
<glyph unicode="C" horiz-adv-x="1421" d="M100 700q0 164 50.5 303t139.5 235t214 150t272 54q254 0 403.5 -124t188.5 -329h-233q-31 130 -120.5 205.5t-242.5 75.5q-194 0 -311 -153.5t-117 -405.5q0 -261 114.5 -414.5t303.5 -153.5q148 0 241 78.5t121 204.5h234q-46 -213 -204.5 -334t-401.5 -121 q-198 0 -347 92.5t-227 257.5t-78 379z" />
<glyph unicode="D" horiz-adv-x="1472" d="M195 0v1413h456q108 0 180 -8q125 -15 227.5 -63.5t180 -131t120 -206.5t42.5 -281q0 -155 -44 -283.5t-122 -217.5t-183 -144t-229 -70q-72 -8 -180 -8h-448zM420 180h203q116 0 161 8q173 25 274 164.5t101 370.5q0 219 -97 348t-269 154q-56 10 -162 10h-211v-1055z " />
<glyph unicode="E" horiz-adv-x="1228" d="M195 0v1413h956v-178h-731v-438h674v-179h-674v-438h751v-180h-976z" />
<glyph unicode="F" horiz-adv-x="1185" d="M195 0v1413h956v-178h-731v-438h674v-179h-674v-618h-225z" />
<glyph unicode="G" horiz-adv-x="1478" d="M100 700q0 219 87.5 388.5t242 261.5t350.5 92q254 0 404.5 -124.5t189.5 -330.5h-233q-31 131 -121 207t-244 76q-195 0 -313.5 -154t-118.5 -405q0 -261 116 -414.5t306 -153.5q161 0 265.5 103.5t113.5 273.5h-322v180h541v-700h-188l-9 233l-63 -139 q-117 -123 -363 -123q-198 0 -344 92.5t-221.5 257t-75.5 379.5z" />
<glyph unicode="H" horiz-adv-x="1515" d="M195 0v1413h225v-629h725v629h223v-1413h-223v602h-725v-602h-225z" />
<glyph unicode="I" horiz-adv-x="567" d="M195 0v1413h225v-1413h-225z" />
<glyph unicode="J" horiz-adv-x="1161" d="M98 418h234q9 -132 77.5 -203.5t178.5 -71.5q215 0 233 226q2 43 2 157v887h226v-876q0 -85 -5 -183q-11 -176 -127 -279.5t-337 -103.5q-219 0 -339.5 113t-142.5 334z" />
<glyph unicode="K" horiz-adv-x="1316" d="M195 0v1413h225v-721l657 721h266l-632 -684l600 -729h-301l-465 590l-125 -137v-453h-225z" />
<glyph unicode="L" horiz-adv-x="1204" d="M195 0v1413h225v-1227h751v-186h-976z" />
<glyph unicode="M" horiz-adv-x="1802" d="M195 0v1413h376l361 -1204l360 1204h363v-1413h-223v694q0 356 4 506q-59 -207 -154 -504l-221 -696h-270l-226 698q-98 303 -149 500q4 -152 4 -504v-694h-225z" />
<glyph unicode="N" horiz-adv-x="1509" d="M195 0v1413h317l633 -1173q-6 240 -6 493v680h221v-1413h-322l-626 1165q8 -216 8 -489v-676h-225z" />
<glyph unicode="O" horiz-adv-x="1536" d="M100 707q0 164 46 299.5t132 232t215 150t289 53.5q212 0 367 -92.5t234 -258t79 -384.5t-79 -384t-234 -258.5t-367 -93.5q-213 0 -368.5 93.5t-234.5 258.5t-79 384zM342 707q0 -263 117 -413.5t323 -150.5q205 0 322 150.5t117 413.5q0 264 -116.5 413.5t-322.5 149.5 q-207 0 -323.5 -149.5t-116.5 -413.5z" />
<glyph unicode="P" horiz-adv-x="1249" d="M195 0v1413h479q126 0 192 -8q160 -21 258.5 -130t98.5 -290t-98.5 -290t-258.5 -130q-66 -8 -192 -8h-254v-557h-225zM420 739h244q88 0 143 9q80 15 129 73t49 164t-49 164.5t-129 73.5q-49 8 -143 8h-244v-492z" />
<glyph unicode="Q" horiz-adv-x="1531" d="M100 707q0 164 46 299.5t132 232t215 150t289 53.5q212 0 367 -92.5t234 -258t79 -384.5q0 -167 -62.5 -305t-182.5 -224q127 -22 260 -133l-121 -149q-98 64 -157.5 86t-121.5 22q-63 0 -149 -18q-68 -15 -146 -15q-213 0 -368.5 93.5t-234.5 258.5t-79 384zM342 707 q0 -263 117 -413.5t323 -150.5q205 0 322 150.5t117 413.5q0 264 -116.5 413.5t-322.5 149.5q-207 0 -323.5 -149.5t-116.5 -413.5z" />
<glyph unicode="R" horiz-adv-x="1312" d="M195 0v1413h493q127 0 193 -8q164 -22 264 -120t100 -271q0 -130 -74.5 -219.5t-195.5 -128.5q90 -34 135.5 -109.5t56.5 -191.5q13 -139 31.5 -224t52.5 -141h-247q-36 123 -58 336q-12 109 -57 161.5t-139 59.5q-31 2 -91 2h-239v-559h-225zM420 737h246q92 0 127 4 q95 8 155 72.5t60 169.5t-53 168.5t-146 75.5q-37 6 -131 6h-258v-496z" />
<glyph unicode="S" horiz-adv-x="1218" d="M98 410h234q27 -129 113 -198t212 -69q115 0 190 54.5t75 152.5q0 99 -73 160t-243 100q-106 25 -184 57.5t-139.5 81t-93 118t-31.5 159.5q0 129 67 225t176.5 143.5t245.5 47.5q225 0 349 -117.5t147 -312.5h-234q-12 123 -82 190.5t-192 67.5q-103 0 -171.5 -55 t-68.5 -150q0 -104 70 -162.5t235 -95.5q234 -56 346.5 -163t112.5 -275q0 -124 -69 -216t-181.5 -137t-251.5 -45q-245 0 -391 113.5t-168 325.5z" />
<glyph unicode="T" horiz-adv-x="1263" d="M59 1235v178h1211v-178h-494v-1235h-223v1235h-494z" />
<glyph unicode="U" horiz-adv-x="1415" d="M180 547v866h223v-870q0 -74 5 -115q11 -132 94 -208.5t231 -76.5q150 0 233.5 76.5t94.5 208.5q4 33 4 115v870h223v-866q0 -93 -4 -146q-8 -91 -43.5 -167t-100.5 -136t-169 -93.5t-238 -33.5t-238 33.5t-169 93.5t-100 136t-42 167q-4 53 -4 146z" />
<glyph unicode="V" horiz-adv-x="1335" d="M66 1413h243l400 -1241l409 1241h240l-508 -1413h-291z" />
<glyph unicode="W" horiz-adv-x="1982" d="M53 1413h248l270 -1231l293 1211h310l284 -1213l287 1233h233l-385 -1413h-297l-282 1204l-297 -1204h-299z" />
<glyph unicode="X" horiz-adv-x="1327" d="M45 0l506 713l-469 700h258l348 -553l363 553h258l-492 -694l508 -719h-262l-385 571l-369 -571h-264z" />
<glyph unicode="Y" horiz-adv-x="1232" d="M37 1413h256l364 -653l353 653h250l-500 -860v-553h-223v553z" />
<glyph unicode="Z" horiz-adv-x="1239" d="M98 0v172l817 1063h-759v178h1024v-176l-813 -1057h823v-180h-1092z" />
<glyph unicode="[" horiz-adv-x="681" d="M207 -164v1761h389v-135h-250v-1491h250v-135h-389z" />
<glyph unicode="\" horiz-adv-x="643" d="M-10 1475h149l514 -1536h-149z" />
<glyph unicode="]" horiz-adv-x="663" d="M68 -29h249v1491h-249v135h389v-1761h-389v135z" />
<glyph unicode="^" d="M176 440l356 822h164l357 -822h-162l-275 686l-276 -686h-164z" />
<glyph unicode="_" horiz-adv-x="1024" d="M102 -43h820v-135h-820v135z" />
<glyph unicode="`" horiz-adv-x="614" d="M47 1417h205l139 -233h-135z" />
<glyph unicode="a" horiz-adv-x="1116" d="M72 285q0 372 604 372h69v27q0 78 -4 119q-10 149 -190 149q-192 0 -211 -209h-225q10 176 130.5 274.5t309.5 98.5q202 0 299 -78.5t111 -224.5q6 -68 6 -154v-383q0 -125 20 -276h-223l-18 156l-58 -115q-102 -70 -270 -70q-151 0 -250.5 83.5t-99.5 230.5zM309 303 q0 -84 51.5 -126t143.5 -42q108 0 174.5 72t66.5 201v100q-50 4 -95 4q-140 0 -226 -38q-114 -50 -115 -171z" />
<glyph unicode="b" horiz-adv-x="1282" d="M141 0v1505h226v-587l82 116q45 38 122.5 60t161.5 22q152 0 264 -72.5t169 -197t57 -283.5q0 -145 -42.5 -260t-116 -186.5t-167.5 -108.5t-201 -37q-71 0 -144.5 18.5t-113.5 49.5l-71 108v-147h-226zM367 500q0 -95 27 -168.5t71.5 -114.5t96.5 -61.5t108 -20.5 q140 0 227.5 106t87.5 302q0 182 -80.5 295.5t-224.5 113.5q-66 0 -120.5 -21.5t-98.5 -67t-69 -124t-25 -184.5v-55z" />
<glyph unicode="c" horiz-adv-x="1114" d="M59 539q0 135 42 246t114.5 182.5t167.5 110t203 38.5q202 0 328 -111t147 -294h-227q-48 241 -254 241q-125 0 -204 -101t-79 -296q0 -211 76 -315.5t198 -104.5q97 0 163 58t91 167h230q-37 -191 -168 -290t-328 -99q-224 0 -362 144.5t-138 423.5z" />
<glyph unicode="d" horiz-adv-x="1288" d="M59 526q0 144 42.5 258.5t116 186t167.5 108.5t201 37q71 0 144.5 -18t113.5 -49l71 -109v565h226v-1505h-226v170l-81 -117q-46 -37 -124 -59.5t-161 -22.5q-228 0 -359 155t-131 400zM297 545q0 -182 80 -296t223 -114q66 0 121 21.5t99.5 67t69.5 124t25 184.5v58 q0 95 -27 167.5t-72 113.5t-97 61t-109 20q-139 0 -226 -105.5t-87 -301.5z" />
<glyph unicode="e" horiz-adv-x="1150" d="M59 539q0 257 148.5 417t384.5 160q153 0 264.5 -73t166 -195t54.5 -279q0 -51 -4 -88h-780q21 -346 285 -346q100 0 169.5 58t86.5 159h227q-34 -186 -169 -283.5t-323 -97.5q-111 0 -203 35.5t-161 104.5t-107.5 178.5t-38.5 249.5zM297 639h551q-14 152 -80.5 232.5 t-183.5 80.5q-118 0 -194 -80t-93 -233z" />
<glyph unicode="f" horiz-adv-x="638" d="M43 922v157h117v70q0 92 4 129q14 128 99 197t237 69q70 0 125 -12v-168q-44 8 -80 8q-48 0 -84 -14q-63 -25 -72 -92q-6 -44 -6 -105v-82h223v-157h-223v-922h-223v922h-117z" />
<glyph unicode="g" horiz-adv-x="1288" d="M59 528q0 144 42.5 258.5t116 185t167.5 107.5t201 37q71 0 144.5 -18t113.5 -49l71 -109v147h226v-817q0 -152 -2 -211q-9 -244 -148 -369.5t-385 -125.5q-437 0 -516 370h227q64 -200 299 -200q135 0 213 78t84 223q2 47 2 125v18l-81 -119q-46 -37 -124 -59.5 t-161 -22.5q-228 0 -359 153t-131 398zM297 551q0 -182 80 -295t223 -113q139 0 227 96.5t88 301.5v49q0 95 -27 167.5t-72 113.5t-97 61t-109 20q-139 0 -226 -103.5t-87 -297.5z" />
<glyph unicode="h" horiz-adv-x="1241" d="M141 0v1516h226v-611l73 127q62 48 125.5 66t149.5 18q172 0 272 -83t115 -228q6 -83 6 -193v-612h-225v588q0 98 -4 153q-8 98 -64 154q-55 55 -162 55h-4q-128 -3 -205 -113t-77 -350v-487h-226z" />
<glyph unicode="i" horiz-adv-x="514" d="M121 1337q0 55 38 92t95 37t94 -36.5t37 -92.5q0 -57 -37 -94t-94 -37t-95 37t-38 94zM141 0v1087h226v-1087h-226z" />
<glyph unicode="j" horiz-adv-x="501" d="M-45 -256q21 -2 39 -2q58 0 88 18q41 22 47 78q4 29 4 92v1157h223v-1150q0 -58 -4 -132q-11 -117 -82.5 -176t-220.5 -59q-65 0 -94 4v170zM113 1331q0 57 38 94t95 37q56 0 94.5 -37.5t38.5 -93.5q0 -55 -38.5 -93t-94.5 -38q-57 0 -95 37.5t-38 93.5z" />
<glyph unicode="k" horiz-adv-x="1126" d="M141 0v1505h226v-942l475 524h276l-495 -509l501 -578h-293l-368 446l-96 -106v-340h-226z" />
<glyph unicode="l" horiz-adv-x="536" d="M133 326v1179h225v-1173q0 -70 2 -103q4 -51 32 -68q19 -12 57 -12q18 0 40 3v-154q-75 -10 -147 -10q-96 0 -148.5 41.5t-58.5 140.5q-2 41 -2 156z" />
<glyph unicode="m" horiz-adv-x="1808" d="M141 0v1087h226v-161l73 127q80 63 232 63q123 0 205 -56t116 -149l101 142q83 63 231 63q145 0 232.5 -74t107.5 -192q10 -69 10 -193v-657h-225v575q0 124 -8 197q-10 87 -62.5 132.5t-140.5 45.5q-219 0 -219 -403v-547h-223v575q0 115 -9 197q-24 178 -202 178 q-219 0 -219 -403v-547h-226z" />
<glyph unicode="n" horiz-adv-x="1241" d="M141 0v1087h226v-182l73 127q62 48 125.5 66t149.5 18q172 0 272 -83t115 -228q6 -83 6 -193v-612h-225v588q0 98 -4 153q-8 98 -64 153.5t-166 55.5q-127 0 -204.5 -111t-77.5 -352v-487h-226z" />
<glyph unicode="o" horiz-adv-x="1218" d="M59 545q0 120 35 223t102 181t173.5 122.5t240.5 44.5q133 0 239.5 -44.5t173.5 -122.5t102.5 -181t35.5 -223t-35.5 -223.5t-102.5 -182t-173.5 -123.5t-239.5 -45q-134 0 -240.5 45t-173.5 123.5t-102 182t-35 223.5zM297 545q0 -187 83 -298.5t230 -111.5 q146 0 229 111.5t83 298.5t-83 297t-229 110q-147 0 -230 -110t-83 -297z" />
<glyph unicode="p" horiz-adv-x="1282" d="M141 -401v1488h226v-169l82 116q45 38 122.5 60t161.5 22q152 0 264 -72.5t169 -197t57 -283.5q0 -145 -42.5 -260t-116 -186.5t-167.5 -108.5t-201 -37q-71 0 -144.5 18.5t-113.5 49.5l-71 108v-548h-226zM367 500q0 -95 27 -168.5t71.5 -114.5t96.5 -61.5t108 -20.5 q140 0 227.5 106t87.5 302q0 182 -80.5 295.5t-224.5 113.5q-66 0 -120.5 -21.5t-98.5 -67t-69 -124t-25 -184.5v-55z" />
<glyph unicode="q" horiz-adv-x="1288" d="M59 526q0 144 42.5 258.5t116 186t167.5 108.5t201 37q71 0 144.5 -18t113.5 -49l71 -109v147h226v-1488h-226v571l-81 -117q-46 -37 -124 -59.5t-161 -22.5q-228 0 -359 155t-131 400zM297 545q0 -182 80 -296t223 -114q66 0 121 21.5t99.5 67t69.5 124t25 184.5v58 q0 95 -27 167.5t-72 113.5t-97 61t-109 20q-139 0 -226 -105.5t-87 -301.5z" />
<glyph unicode="r" horiz-adv-x="722" d="M141 0v1087h226v-182l92 148q77 61 168 61q41 0 75 -12v-176q-18 1 -34 1q-136 -1 -214 -79q-88 -88 -87 -283v-565h-226z" />
<glyph unicode="s" horiz-adv-x="974" d="M47 326h227q19 -100 80.5 -147.5t151.5 -47.5q82 0 135 35.5t53 103.5q0 70 -59 114t-199 81q-80 20 -139 46t-107.5 64t-74 92.5t-25.5 123.5q0 151 109.5 238t292.5 87q182 0 288 -92.5t125 -247.5h-229q-18 88 -68.5 135t-132.5 47q-77 0 -117.5 -38.5t-40.5 -102.5 q0 -70 56 -109t186 -73q186 -48 274.5 -128t88.5 -220q0 -152 -118.5 -234t-305.5 -82q-189 0 -309 88.5t-142 266.5z" />
<glyph unicode="t" horiz-adv-x="686" d="M33 922v157h153v260h224v-260h213v-157h-213v-570q0 -61 2 -90q6 -78 46 -102q27 -16 86 -17q28 0 64 4v-155q-86 -12 -166 -12q-127 0 -186.5 49t-67.5 157q-2 37 -2 146v590h-153z" />
<glyph unicode="u" horiz-adv-x="1236" d="M125 440v647h223v-602q0 -76 8 -149q12 -92 72 -144.5t162 -52.5q127 0 201.5 105.5t74.5 330.5v512h224v-1087h-224v184l-75 -133q-63 -44 -126.5 -62t-148.5 -18q-161 0 -261 79t-120 198q-10 69 -10 192z" />
<glyph unicode="v" horiz-adv-x="1101" d="M2 1087h248l305 -921l301 921h240l-416 -1087h-262z" />
<glyph unicode="w" horiz-adv-x="1650" d="M2 1087h254l223 -890l211 888h275l217 -884l223 886h240l-347 -1087h-258l-217 879l-215 -879h-260z" />
<glyph unicode="x" horiz-adv-x="1042" d="M-10 0l387 551l-373 536h264l248 -393l246 393h258l-379 -534l383 -553h-260l-258 410l-258 -410h-258z" />
<glyph unicode="y" horiz-adv-x="1099" d="M2 1087h252l299 -919l297 919h244l-443 -1157q-75 -194 -170 -277t-243 -83q-74 0 -107 6v166q27 -2 72 -2q79 0 132 39t89 131l16 37z" />
<glyph unicode="z" horiz-adv-x="978" d="M49 0v156l610 762h-569v161h821v-161l-608 -756h617v-162h-871z" />
<glyph unicode="{" horiz-adv-x="686" d="M156 649v135q92 9 130 46.5t38 101.5q0 59 -21 215q-24 162 -24 229q0 121 67.5 171t210.5 50h43v-135h-31q-84 0 -117.5 -22.5t-33.5 -73.5q0 -44 22 -199q27 -197 27 -241q0 -87 -45.5 -140t-130.5 -67q85 -13 130.5 -68t45.5 -143q0 -46 -27 -242q-22 -153 -22 -198 q0 -51 33.5 -74t117.5 -23h31v-135h-43q-143 0 -210.5 50.5t-67.5 172.5q0 66 24 228q21 156 21 215q0 66 -38 103t-130 44z" />
<glyph unicode="|" horiz-adv-x="544" d="M199 -410v2048h147v-2048h-147z" />
<glyph unicode="}" horiz-adv-x="686" d="M86 -29h31q84 0 117.5 23t33.5 74q0 43 -22 198q-27 197 -27 242q0 179 176 207q-85 13 -130.5 68t-45.5 143q0 44 27 241q22 155 22 199q0 51 -33.5 73.5t-117.5 22.5h-31v135h43q143 0 211 -50t68 -171q0 -60 -25 -229q-21 -156 -21 -215q0 -64 38 -101.5t130 -46.5 v-135q-92 -9 -130 -46t-38 -101q0 -59 21 -215q25 -169 25 -230q0 -121 -68 -171t-211 -50h-43v135z" />
<glyph unicode="~" d="M164 457q0 299 235 299q58 0 105.5 -18t138.5 -66q72 -39 112.5 -55.5t78.5 -16.5q54 0 76 38t22 118h135q0 -299 -238 -299q-39 0 -78.5 11t-69 25t-93.5 48q-71 38 -112.5 54.5t-78.5 16.5q-54 0 -76 -38.5t-22 -116.5h-135z" />
<glyph unicode="&#xa1;" horiz-adv-x="516" d="M109 965q0 65 42.5 107t106.5 42q65 0 107.5 -42.5t42.5 -106.5q0 -65 -43 -107.5t-107 -42.5t-106.5 42.5t-42.5 107.5zM137 -328l25 1020h190l25 -1020h-240z" />
<glyph unicode="&#xa2;" horiz-adv-x="1200" d="M109 539q0 239 123.5 388.5t316.5 180.5v162h139v-158q180 -15 291.5 -124.5t130.5 -280.5h-217q-42 205 -205 237v-801q74 18 125.5 73t71.5 144h219q-33 -170 -142 -268t-274 -117v-159h-139v157q-199 20 -319.5 164.5t-120.5 401.5zM336 553q0 -177 58 -278.5 t155 -129.5v793q-96 -29 -154.5 -126.5t-58.5 -258.5z" />
<glyph unicode="&#xa3;" d="M137 0v158q59 14 102.5 41.5t68 63.5t35.5 76t11 85q0 105 -45 211h-153v131h94q-60 129 -60 248q0 192 129.5 310t327.5 118q106 0 190 -31.5t138 -88t84.5 -129.5t36.5 -161h-234q-27 238 -219 238q-100 0 -154.5 -65.5t-54.5 -157.5q0 -74 15 -131.5t57 -149.5h430 v-131h-379q31 -85 31 -176q0 -187 -174 -279l690 -2v-178h-967z" />
<glyph unicode="&#xa4;" d="M195 289l116 117q-65 94 -65 210q0 117 65 211l-116 119l92 92l119 -118q94 65 208 65q117 0 211 -65l121 118l92 -92l-120 -119q65 -94 65 -211t-63 -208l118 -119l-92 -92l-119 116q-94 -65 -213 -65q-117 0 -211 65l-116 -116zM395 616q0 -101 62.5 -166t156.5 -65 q96 0 159 65t63 166t-63 166.5t-159 65.5q-94 0 -156.5 -65.5t-62.5 -166.5z" />
<glyph unicode="&#xa5;" d="M47 1413h258l318 -661l311 661h248l-371 -670h242v-135h-316l-10 -16v-111h326v-135h-326v-346h-223v346h-326v135h326v111l-10 16h-316v135h240z" />
<glyph unicode="&#xa6;" horiz-adv-x="536" d="M199 -328v697h139v-697h-139zM199 717v696h139v-696h-139z" />
<glyph unicode="&#xa7;" horiz-adv-x="1183" d="M61 604q0 108 52 185.5t145 119.5q-65 77 -65 189q0 157 110 250.5t285 93.5q183 0 289 -92.5t124 -253.5h-227q-17 90 -65.5 139t-124.5 49q-69 0 -113.5 -42.5t-44.5 -115.5q0 -84 62 -138t208 -93q226 -62 328 -154.5t102 -242.5q0 -98 -52.5 -175.5t-141.5 -123.5 q74 -87 74 -215q0 -107 -60 -186t-155 -116.5t-211 -37.5q-191 0 -311.5 90.5t-141.5 269.5h227q26 -101 87 -151t149 -50q81 0 131.5 42.5t50.5 119.5q0 87 -66.5 146t-242.5 104q-402 104 -402 389zM295 612q0 -76 70 -133t196 -90q122 -31 209 -74q57 19 90 62t33 98 q0 85 -66 139t-219 101q-102 26 -190 71q-57 -13 -90 -56t-33 -118z" />
<glyph unicode="&#xa8;" horiz-adv-x="614" d="M35 1294q0 44 32 76.5t76 32.5t77.5 -32.5t33.5 -76.5t-33 -75t-78 -31q-44 0 -76 31t-32 75zM362 1294q0 44 32.5 76.5t76.5 32.5t76.5 -32.5t32.5 -76.5t-32 -75t-77 -31t-77 31t-32 75z" />
<glyph unicode="&#xa9;" horiz-adv-x="1728" d="M63 727q0 169 61.5 319t168 256.5t255 168t316.5 61.5t316.5 -61.5t255 -168t168 -256.5t61.5 -319t-61.5 -319t-168 -256.5t-255 -168t-316.5 -61.5t-316.5 61.5t-255 168t-168 256.5t-61.5 319zM215 727q0 -188 84.5 -340.5t233 -239t331.5 -86.5q182 0 330.5 86.5 t233.5 239t85 340.5q0 140 -50 263.5t-136 212t-206.5 139.5t-256.5 51q-183 0 -331.5 -87t-233 -239.5t-84.5 -339.5zM428 725q0 217 123.5 345t327.5 128q171 0 277.5 -93t133.5 -251h-217q-28 188 -199 188q-107 0 -163 -83.5t-56 -229.5q0 -148 60 -232.5t162 -84.5 q79 0 131 51t63 135h217q-34 -160 -140 -251t-288 -91q-192 0 -312 128t-120 341z" />
<glyph unicode="&#xab;" horiz-adv-x="1212" d="M260 508l281 340h178l-281 -340l281 -340h-178zM643 508l281 340h178l-281 -340l281 -340h-178z" />
<glyph unicode="&#xac;" d="M215 659v136h778v-383h-141v247h-637z" />
<glyph unicode="&#xad;" horiz-adv-x="581" d="M66 512v135h450v-135h-450z" />
<glyph unicode="&#xae;" horiz-adv-x="1030" d="M84 1135q0 189 120.5 309.5t309.5 120.5q190 0 310 -120.5t120 -309.5t-120 -309.5t-310 -120.5q-189 0 -309.5 120.5t-120.5 309.5zM188 1135q0 -145 91.5 -237.5t234.5 -92.5q144 0 235 92.5t91 237.5q0 146 -90.5 238.5t-235.5 92.5q-143 0 -234.5 -92.5t-91.5 -238.5 zM358 932v422h148q37 0 55 -2q137 -13 137 -115q0 -76 -86 -104q57 -13 64 -91q7 -67 26 -110h-120q-10 40 -15 90q-5 49 -59 49h-43v-139h-107zM465 1159h37q27 0 39 2q41 8 41 53q0 42 -41 52q-12 2 -39 2h-37v-109z" />
<glyph unicode="&#xaf;" horiz-adv-x="614" d="M47 1229v129h522v-129h-522z" />
<glyph unicode="&#xb0;" horiz-adv-x="622" d="M53 1190q0 112 72 182t186 70t186 -70t72 -182t-72 -182t-186 -70t-186 70t-72 182zM197 1190q0 -54 32 -87.5t82 -33.5q48 0 81.5 34t33.5 87t-33.5 87t-81.5 34q-50 0 -82 -33.5t-32 -87.5z" />
<glyph unicode="&#xb1;" d="M190 0v131h850v-131h-850zM190 586v135h355v342h141v-342h354v-135h-354v-350h-141v350h-355z" />
<glyph unicode="&#xb4;" horiz-adv-x="614" d="M227 1184l142 233h204l-211 -233h-135z" />
<glyph unicode="&#xb6;" horiz-adv-x="1185" d="M88 1034q0 153 85.5 260.5t236.5 116.5q35 2 114 2h514v-1638h-139v1503h-201v-1503h-139v880h-35q-79 0 -114 2q-151 9 -236.5 116.5t-85.5 260.5z" />
<glyph unicode="&#xb7;" horiz-adv-x="454" d="M70 625q0 67 45 112t112 45q66 0 112 -45t46 -112q0 -66 -46 -112t-112 -46q-67 0 -112 46t-45 112z" />
<glyph unicode="&#xb8;" horiz-adv-x="614" d="M121 -309q49 -21 110 -21q63 0 95 21t32 59q0 49 -46 70t-150 14l96 184h125l-55 -102q174 -21 174 -166q0 -88 -75 -134t-200 -46q-65 0 -106 16v105z" />
<glyph unicode="&#xbb;" horiz-adv-x="1196" d="M111 168l280 340l-280 340h178l280 -340l-280 -340h-178zM494 168l280 340l-280 340h178l280 -340l-280 -340h-178z" />
<glyph unicode="&#xbf;" horiz-adv-x="1040" d="M127 27q0 108 52 204t163 201q89 86 121.5 139.5t38.5 122.5h207q-7 -91 -41 -158.5t-115 -160.5q-105 -118 -143.5 -189t-38.5 -153q0 -99 55.5 -157t155.5 -58q106 0 169 68t72 200h230q-6 -202 -137.5 -321t-344.5 -119q-209 0 -326.5 105t-117.5 276zM455 967 q0 65 42.5 107t106.5 42q65 0 107.5 -42.5t42.5 -106.5q0 -65 -43 -107.5t-107 -42.5t-106.5 42.5t-42.5 107.5z" />
<glyph unicode="&#xc0;" horiz-adv-x="1343" d="M47 0l508 1413h291l493 -1413h-243l-156 467h-500l-153 -467h-240zM446 1716h205l129 -209h-135zM500 645h383l-187 582z" />
<glyph unicode="&#xc1;" horiz-adv-x="1343" d="M47 0l508 1413h291l493 -1413h-243l-156 467h-500l-153 -467h-240zM500 645h383l-187 582zM623 1507l129 209h204l-198 -209h-135z" />
<glyph unicode="&#xc2;" horiz-adv-x="1343" d="M47 0l508 1413h291l493 -1413h-243l-156 467h-500l-153 -467h-240zM483 1507l135 209h166l136 -209h-156l-64 123l-63 -123h-154zM500 645h383l-187 582z" />
<glyph unicode="&#xc3;" horiz-adv-x="1343" d="M47 0l508 1413h291l493 -1413h-243l-156 467h-500l-153 -467h-240zM455 1532q0 96 31 137t94 41q57 0 137 -31q73 -24 90 -24q18 0 25.5 10.5t7.5 36.5h108q0 -96 -31.5 -137t-95.5 -41q-57 0 -137 30q-77 25 -90 25q-33 0 -33 -47h-106zM500 645h383l-187 582z" />
<glyph unicode="&#xc4;" horiz-adv-x="1343" d="M47 0l508 1413h291l493 -1413h-243l-156 467h-500l-153 -467h-240zM432 1610q0 44 33 76t78 32q44 0 76 -32t32 -76t-32 -76.5t-76 -32.5t-77.5 32.5t-33.5 76.5zM500 645h383l-187 582zM750 1610q0 44 33 76t77 32t76.5 -32t32.5 -76t-32.5 -76.5t-76.5 -32.5t-77 32.5 t-33 76.5z" />
<glyph unicode="&#xc5;" horiz-adv-x="1343" d="M47 0l508 1413h291l493 -1413h-243l-156 467h-500l-153 -467h-240zM500 645h383l-187 582zM500 1645q0 77 56 126.5t144 49.5t144.5 -49.5t56.5 -126.5q0 -76 -56.5 -125.5t-144.5 -49.5t-144 49t-56 126zM618 1645q0 -37 23.5 -61.5t58.5 -24.5t58.5 24.5t23.5 61.5 q0 38 -23 62t-59 24t-59 -24t-23 -62z" />
<glyph unicode="&#xc6;" horiz-adv-x="1904" d="M-76 0l795 1413h1106v-178h-766l33 -438h677v-179h-665l31 -438h710v-180h-921l-35 481h-463l-260 -481h-242zM524 662h353l-41 571z" />
<glyph unicode="&#xc7;" horiz-adv-x="1421" d="M100 700q0 164 50.5 303t139.5 235t214 150t272 54q254 0 403.5 -124t188.5 -329h-233q-31 130 -120.5 205.5t-242.5 75.5q-194 0 -311 -153.5t-117 -405.5q0 -261 114.5 -414.5t303.5 -153.5q148 0 241 78.5t121 204.5h234q-45 -207 -197 -328t-385 -127l-31 -55 q175 -21 175 -166q0 -88 -75.5 -134t-199.5 -46q-56 0 -106 16v105q46 -21 110 -21q127 0 127 82q0 98 -198 84l75 141q-258 34 -405.5 229.5t-147.5 493.5z" />
<glyph unicode="&#xc8;" horiz-adv-x="1228" d="M195 0v1413h956v-178h-731v-438h674v-179h-674v-438h751v-180h-976zM436 1716h205l129 -209h-135z" />
<glyph unicode="&#xc9;" horiz-adv-x="1228" d="M195 0v1413h956v-178h-731v-438h674v-179h-674v-438h751v-180h-976zM612 1507l129 209h205l-198 -209h-136z" />
<glyph unicode="&#xca;" horiz-adv-x="1228" d="M195 0v1413h956v-178h-731v-438h674v-179h-674v-438h751v-180h-976zM473 1507l135 209h166l135 -209h-155l-64 123l-63 -123h-154z" />
<glyph unicode="&#xcb;" horiz-adv-x="1228" d="M195 0v1413h956v-178h-731v-438h674v-179h-674v-438h751v-180h-976zM422 1610q0 44 33 76t77 32t76.5 -32t32.5 -76t-32.5 -76.5t-76.5 -32.5t-77 32.5t-33 76.5zM739 1610q0 44 33 76t78 32q44 0 76 -32t32 -76t-32 -76.5t-76 -32.5t-77.5 32.5t-33.5 76.5z" />
<glyph unicode="&#xcc;" horiz-adv-x="567" d="M53 1716h205l129 -209h-135zM195 0v1413h225v-1413h-225z" />
<glyph unicode="&#xcd;" horiz-adv-x="567" d="M195 0v1413h225v-1413h-225zM229 1507l129 209h205l-198 -209h-136z" />
<glyph unicode="&#xce;" horiz-adv-x="567" d="M90 1507l135 209h166l135 -209h-155l-64 123l-63 -123h-154zM195 0v1413h225v-1413h-225z" />
<glyph unicode="&#xcf;" horiz-adv-x="567" d="M39 1610q0 44 32 76t76 32q45 0 78 -32t33 -76t-33.5 -76.5t-77.5 -32.5t-76 32.5t-32 76.5zM195 0v1413h225v-1413h-225zM356 1610q0 44 32.5 76t76.5 32t77 -32t33 -76t-33 -76.5t-77 -32.5t-76.5 32.5t-32.5 76.5z" />
<glyph unicode="&#xd0;" horiz-adv-x="1466" d="M68 618v136h120v659h455q108 0 180 -8q125 -15 227.5 -63.5t180 -131t120 -206.5t42.5 -281q0 -205 -76.5 -362t-205 -244.5t-294.5 -108.5q-72 -8 -180 -8h-449v618h-120zM412 180h204q117 0 162 8q172 25 273.5 165t101.5 370q0 219 -97.5 348t-269.5 154 q-59 10 -163 10h-211v-481h262v-136h-262v-438z" />
<glyph unicode="&#xd1;" horiz-adv-x="1509" d="M195 0v1413h317l633 -1173q-6 240 -6 493v680h221v-1413h-322l-626 1165q8 -216 8 -489v-676h-225zM528 1532q0 96 31.5 137t95.5 41q58 0 138 -31q74 -24 90 -24q32 0 32 47h107q0 -96 -31 -137t-94 -41q-60 0 -137 30q-77 25 -90 25q-18 0 -25.5 -10.5t-7.5 -36.5h-109 z" />
<glyph unicode="&#xd2;" horiz-adv-x="1536" d="M100 707q0 164 46 299.5t132 232t215 150t289 53.5q212 0 367 -92.5t234 -258t79 -384.5t-79 -384t-234 -258.5t-367 -93.5q-213 0 -368.5 93.5t-234.5 258.5t-79 384zM342 707q0 -263 117 -413.5t323 -150.5q205 0 322 150.5t117 413.5q0 264 -116.5 413.5t-322.5 149.5 q-207 0 -323.5 -149.5t-116.5 -413.5zM528 1716h205l129 -209h-135z" />
<glyph unicode="&#xd3;" horiz-adv-x="1536" d="M100 707q0 164 46 299.5t132 232t215 150t289 53.5q212 0 367 -92.5t234 -258t79 -384.5t-79 -384t-234 -258.5t-367 -93.5q-213 0 -368.5 93.5t-234.5 258.5t-79 384zM342 707q0 -263 117 -413.5t323 -150.5q205 0 322 150.5t117 413.5q0 264 -116.5 413.5t-322.5 149.5 q-207 0 -323.5 -149.5t-116.5 -413.5zM702 1507l132 209h204l-200 -209h-136z" />
<glyph unicode="&#xd4;" horiz-adv-x="1536" d="M100 707q0 164 46 299.5t132 232t215 150t289 53.5q212 0 367 -92.5t234 -258t79 -384.5t-79 -384t-234 -258.5t-367 -93.5q-213 0 -368.5 93.5t-234.5 258.5t-79 384zM342 707q0 -263 117 -413.5t323 -150.5q205 0 322 150.5t117 413.5q0 264 -116.5 413.5t-322.5 149.5 q-207 0 -323.5 -149.5t-116.5 -413.5zM565 1507l133 209h168l135 -209h-157l-64 123l-61 -123h-154z" />
<glyph unicode="&#xd5;" horiz-adv-x="1536" d="M100 707q0 164 46 299.5t132 232t215 150t289 53.5q212 0 367 -92.5t234 -258t79 -384.5t-79 -384t-234 -258.5t-367 -93.5q-213 0 -368.5 93.5t-234.5 258.5t-79 384zM342 707q0 -263 117 -413.5t323 -150.5q205 0 322 150.5t117 413.5q0 264 -116.5 413.5t-322.5 149.5 q-207 0 -323.5 -149.5t-116.5 -413.5zM535 1532q0 96 31.5 137t95.5 41q55 0 137 -31q74 -24 90 -24q33 0 33 47h106q0 -96 -31 -137t-94 -41q-60 0 -137 30q-77 25 -92 25q-31 0 -31 -47h-108z" />
<glyph unicode="&#xd6;" horiz-adv-x="1536" d="M100 707q0 164 46 299.5t132 232t215 150t289 53.5q212 0 367 -92.5t234 -258t79 -384.5t-79 -384t-234 -258.5t-367 -93.5q-213 0 -368.5 93.5t-234.5 258.5t-79 384zM342 707q0 -263 117 -413.5t323 -150.5q205 0 322 150.5t117 413.5q0 264 -116.5 413.5t-322.5 149.5 q-207 0 -323.5 -149.5t-116.5 -413.5zM514 1610q0 44 32.5 76t76.5 32t76 -32t32 -76t-32 -76.5t-76 -32.5t-76.5 32.5t-32.5 76.5zM831 1610q0 44 32.5 76t76.5 32t76.5 -32t32.5 -76t-32.5 -76.5t-76.5 -32.5t-76.5 32.5t-32.5 76.5z" />
<glyph unicode="&#xd7;" d="M225 942l680 -680l101 98l-682 680z" />
<glyph unicode="&#xd8;" horiz-adv-x="1548" d="M92 109l137 139q-123 186 -123 459q0 164 46 299.5t132 232t215 150t289 53.5q288 0 467 -168l131 129l99 -98l-139 -140q122 -180 122 -458q0 -219 -79 -384t-234 -258.5t-367 -93.5q-287 0 -469 168l-129 -129zM348 707q0 -171 49 -293l711 710q-118 146 -320 146 q-207 0 -323.5 -149.5t-116.5 -413.5zM469 289q118 -146 319 -146q207 0 324 150.5t117 413.5q0 162 -49 292z" />
<glyph unicode="&#xd9;" horiz-adv-x="1415" d="M180 547v866h223v-870q0 -74 5 -115q11 -132 94 -208.5t231 -76.5q150 0 233.5 76.5t94.5 208.5q4 33 4 115v870h223v-866q0 -93 -4 -146q-8 -91 -43.5 -167t-100.5 -136t-169 -93.5t-238 -33.5t-238 33.5t-169 93.5t-100 136t-42 167q-4 53 -4 146zM479 1716h205 l131 -209h-135z" />
<glyph unicode="&#xda;" horiz-adv-x="1415" d="M180 547v866h223v-870q0 -74 5 -115q11 -132 94 -208.5t231 -76.5q150 0 233.5 76.5t94.5 208.5q4 33 4 115v870h223v-866q0 -93 -4 -146q-8 -91 -43.5 -167t-100.5 -136t-169 -93.5t-238 -33.5t-238 33.5t-169 93.5t-100 136t-42 167q-4 53 -4 146zM655 1507l129 209 h205l-198 -209h-136z" />
<glyph unicode="&#xdb;" horiz-adv-x="1415" d="M180 547v866h223v-870q0 -74 5 -115q11 -132 94 -208.5t231 -76.5q150 0 233.5 76.5t94.5 208.5q4 33 4 115v870h223v-866q0 -93 -4 -146q-8 -91 -43.5 -167t-100.5 -136t-169 -93.5t-238 -33.5t-238 33.5t-169 93.5t-100 136t-42 167q-4 53 -4 146zM516 1507l135 209 h168l133 -209h-155l-64 123l-61 -123h-156z" />
<glyph unicode="&#xdc;" horiz-adv-x="1415" d="M180 547v866h223v-870q0 -74 5 -115q11 -132 94 -208.5t231 -76.5q150 0 233.5 76.5t94.5 208.5q4 33 4 115v870h223v-866q0 -93 -4 -146q-8 -91 -43.5 -167t-100.5 -136t-169 -93.5t-238 -33.5t-238 33.5t-169 93.5t-100 136t-42 167q-4 53 -4 146zM467 1610q0 44 32 76 t76 32t76.5 -32t32.5 -76t-32.5 -76.5t-76.5 -32.5t-76 32.5t-32 76.5zM784 1610q0 44 32.5 76t76.5 32t76 -32t32 -76t-32 -76.5t-76 -32.5t-76.5 32.5t-32.5 76.5z" />
<glyph unicode="&#xdd;" horiz-adv-x="1232" d="M37 1413h256l364 -653l353 653h250l-500 -860v-553h-223v553zM569 1507l129 209h205l-198 -209h-136z" />
<glyph unicode="&#xde;" horiz-adv-x="1302" d="M195 0v1413h225v-180h250q126 0 192 -8q162 -21 261.5 -123.5t99.5 -276.5t-100 -278t-261 -125q-66 -8 -192 -8h-250v-414h-225zM420 596h239q95 0 144 8q82 15 132 67.5t50 151.5q0 98 -50.5 151t-131.5 68q-55 9 -144 9h-239v-455z" />
<glyph unicode="&#xdf;" horiz-adv-x="1275" d="M141 0v958q0 78 4 152q12 210 148 322t348 112q221 0 348 -100.5t127 -267.5q0 -106 -61 -201q-146 -79 -146 -160q0 -50 27 -89.5t96 -100.5q92 -79 130 -149.5t38 -178.5q0 -142 -112.5 -223.5t-278.5 -81.5q-121 0 -221 20v176q102 -26 192 -26q88 0 132 41.5 t44 115.5q0 51 -25 98t-95 109q-97 89 -133.5 147.5t-36.5 141.5q0 148 172 238q34 54 34 121q0 94 -60 146t-179 52q-112 0 -182.5 -68.5t-79.5 -197.5q-4 -58 -4 -131v-975h-226z" />
<glyph unicode="&#xe0;" horiz-adv-x="1116" d="M72 285q0 372 604 372h69v27q0 78 -4 119q-10 149 -190 149q-192 0 -211 -209h-225q10 176 130.5 274.5t309.5 98.5q202 0 299 -78.5t111 -224.5q6 -68 6 -154v-383q0 -125 20 -276h-223l-18 156l-58 -115q-102 -70 -270 -70q-151 0 -250.5 83.5t-99.5 230.5zM295 1417 h205l141 -233h-135zM309 303q0 -84 51.5 -126t143.5 -42q108 0 174.5 72t66.5 201v100q-207 16 -321.5 -34t-114.5 -171z" />
<glyph unicode="&#xe1;" horiz-adv-x="1116" d="M72 285q0 372 604 372h69v27q0 78 -4 119q-10 149 -190 149q-192 0 -211 -209h-225q10 176 130.5 274.5t309.5 98.5q202 0 299 -78.5t111 -224.5q6 -68 6 -154v-383q0 -125 20 -276h-223l-18 156l-58 -115q-102 -70 -270 -70q-151 0 -250.5 83.5t-99.5 230.5zM309 303 q0 -84 51.5 -126t143.5 -42q108 0 174.5 72t66.5 201v100q-207 16 -321.5 -34t-114.5 -171zM475 1184l141 233h205l-211 -233h-135z" />
<glyph unicode="&#xe2;" horiz-adv-x="1116" d="M72 285q0 372 604 372h69v27q0 78 -4 119q-10 149 -190 149q-192 0 -211 -209h-225q10 176 130.5 274.5t309.5 98.5q202 0 299 -78.5t111 -224.5q6 -68 6 -154v-383q0 -125 20 -276h-223l-18 156l-58 -115q-102 -70 -270 -70q-151 0 -250.5 83.5t-99.5 230.5zM309 303 q0 -84 51.5 -126t143.5 -42q108 0 174.5 72t66.5 201v100q-207 16 -321.5 -34t-114.5 -171zM338 1184l135 233h168l133 -233h-151l-68 133l-68 -133h-149z" />
<glyph unicode="&#xe3;" horiz-adv-x="1116" d="M72 285q0 372 604 372h69v27q0 78 -4 119q-10 149 -190 149q-192 0 -211 -209h-225q10 176 130.5 274.5t309.5 98.5q202 0 299 -78.5t111 -224.5q6 -68 6 -154v-383q0 -125 20 -276h-223l-18 156l-58 -115q-102 -70 -270 -70q-151 0 -250.5 83.5t-99.5 230.5zM309 303 q0 -84 51.5 -126t143.5 -42q108 0 174.5 72t66.5 201v100q-207 16 -321.5 -34t-114.5 -171zM309 1217q0 96 31 136t94 40t137 -29q68 -25 93 -25q30 0 30 47h109q0 -98 -31.5 -138t-95.5 -40q-49 0 -137 29q-68 25 -90 25q-33 0 -33 -45h-107z" />
<glyph unicode="&#xe4;" horiz-adv-x="1116" d="M72 285q0 372 604 372h69v27q0 78 -4 119q-10 149 -190 149q-192 0 -211 -209h-225q10 176 130.5 274.5t309.5 98.5q202 0 299 -78.5t111 -224.5q6 -68 6 -154v-383q0 -125 20 -276h-223l-18 156l-58 -115q-102 -70 -270 -70q-151 0 -250.5 83.5t-99.5 230.5zM283 1294 q0 44 33 76.5t77 32.5t76.5 -32.5t32.5 -76.5t-32 -75t-77 -31t-77.5 31t-32.5 75zM309 303q0 -84 51.5 -126t143.5 -42q108 0 174.5 72t66.5 201v100q-207 16 -321.5 -34t-114.5 -171zM610 1294q0 44 32.5 76.5t76.5 32.5t76 -32.5t32 -76.5t-32 -75t-76 -31q-45 0 -77 31 t-32 75z" />
<glyph unicode="&#xe5;" horiz-adv-x="1116" d="M72 285q0 372 604 372h69v27q0 78 -4 119q-10 149 -190 149q-192 0 -211 -209h-225q10 176 130.5 274.5t309.5 98.5q202 0 299 -78.5t111 -224.5q6 -68 6 -154v-383q0 -125 20 -276h-223l-18 156l-58 -115q-102 -70 -270 -70q-151 0 -250.5 83.5t-99.5 230.5zM309 303 q0 -84 51.5 -126t143.5 -42q108 0 174.5 72t66.5 201v100q-207 16 -321.5 -34t-114.5 -171zM354 1341q0 82 56.5 133.5t144.5 51.5q89 0 145 -51.5t56 -133.5q0 -80 -56 -131t-145 -51q-88 0 -144.5 51.5t-56.5 130.5zM475 1341q0 -44 22 -69t58 -25q37 0 59.5 25t22.5 69 t-22.5 70.5t-59.5 26.5q-36 0 -58 -26.5t-22 -70.5z" />
<glyph unicode="&#xe6;" horiz-adv-x="1863" d="M72 287q0 183 154 267.5t466 84.5h82v45q0 268 -217 268q-102 0 -157 -53.5t-60 -155.5l-225 -2q4 176 123.5 275.5t316.5 99.5q284 0 369 -194q130 194 385 194q150 0 260 -73t164.5 -195t54.5 -277q0 -51 -4 -90h-776q11 -177 87.5 -261.5t192.5 -84.5q100 0 169.5 58 t86.5 159h230q-24 -125 -97 -212.5t-174 -128t-223 -40.5q-297 0 -420 238l-74 -125q-135 -113 -333 -113q-166 0 -273.5 83.5t-107.5 232.5zM309 305q0 -170 199 -170q116 0 191 80.5t75 214.5v51q-118 5 -199.5 -0.5t-144 -24.5t-92 -56t-29.5 -95zM1010 639h549 q-14 153 -80 233t-185 80q-117 0 -191 -80t-93 -233z" />
<glyph unicode="&#xe7;" horiz-adv-x="1114" d="M59 539q0 135 42 246t114.5 182.5t167.5 110t203 38.5q202 0 328 -111t147 -294l-227 -2q-48 243 -254 243q-125 0 -204 -102t-79 -297q0 -210 76 -314t198 -104q98 0 164 57t90 168h230q-34 -180 -155 -279t-300 -108l-31 -57q174 -22 174 -166q0 -88 -75.5 -134 t-200.5 -46q-64 0 -105 16v105q46 -21 111 -21q62 0 93.5 21t31.5 59q0 49 -46 70t-151 14l74 143q-190 26 -303 168.5t-113 393.5z" />
<glyph unicode="&#xe8;" horiz-adv-x="1150" d="M59 539q0 257 148.5 417t384.5 160q153 0 264.5 -73t166 -195t54.5 -279q0 -51 -4 -88h-780q21 -346 285 -346q100 0 169.5 58t86.5 159h227q-34 -186 -169 -283.5t-323 -97.5q-111 0 -203 35.5t-161 104.5t-107.5 178.5t-38.5 249.5zM297 639h551q-14 152 -80.5 232.5 t-183.5 80.5q-118 0 -194 -80t-93 -233zM319 1417h205l142 -233h-136z" />
<glyph unicode="&#xe9;" horiz-adv-x="1150" d="M59 539q0 257 148.5 417t384.5 160q153 0 264.5 -73t166 -195t54.5 -279q0 -51 -4 -88h-780q21 -346 285 -346q100 0 169.5 58t86.5 159h227q-34 -186 -169 -283.5t-323 -97.5q-111 0 -203 35.5t-161 104.5t-107.5 178.5t-38.5 249.5zM297 639h551q-14 152 -80.5 232.5 t-183.5 80.5q-118 0 -194 -80t-93 -233zM500 1184l141 233h205l-211 -233h-135z" />
<glyph unicode="&#xea;" horiz-adv-x="1150" d="M59 539q0 257 148.5 417t384.5 160q153 0 264.5 -73t166 -195t54.5 -279q0 -51 -4 -88h-780q21 -346 285 -346q100 0 169.5 58t86.5 159h227q-34 -186 -169 -283.5t-323 -97.5q-111 0 -203 35.5t-161 104.5t-107.5 178.5t-38.5 249.5zM297 639h551q-14 152 -80.5 232.5 t-183.5 80.5q-118 0 -194 -80t-93 -233zM362 1184l136 233h168l133 -233h-152l-67 133l-68 -133h-150z" />
<glyph unicode="&#xeb;" horiz-adv-x="1150" d="M59 539q0 257 148.5 417t384.5 160q153 0 264.5 -73t166 -195t54.5 -279q0 -51 -4 -88h-780q21 -346 285 -346q100 0 169.5 58t86.5 159h227q-34 -186 -169 -283.5t-323 -97.5q-111 0 -203 35.5t-161 104.5t-107.5 178.5t-38.5 249.5zM297 639h551q-14 152 -80.5 232.5 t-183.5 80.5q-118 0 -194 -80t-93 -233zM307 1294q0 44 33.5 76.5t77.5 32.5t76 -32.5t32 -76.5t-32 -75t-76 -31q-45 0 -78 31t-33 75zM635 1294q0 44 32 76.5t76 32.5t76.5 -32.5t32.5 -76.5t-32 -75t-77 -31q-44 0 -76 31t-32 75z" />
<glyph unicode="&#xec;" horiz-adv-x="514" d="M-8 1417h207l139 -233h-135zM141 0v1087h226v-1087h-226z" />
<glyph unicode="&#xed;" horiz-adv-x="514" d="M141 0v1087h226v-1087h-226zM174 1184l139 233h205l-209 -233h-135z" />
<glyph unicode="&#xee;" horiz-adv-x="514" d="M37 1184l135 233h166l135 -233h-151l-68 133l-68 -133h-149zM141 0v1087h226v-1087h-226z" />
<glyph unicode="&#xef;" horiz-adv-x="514" d="M-18 1294q0 44 32 76.5t76 32.5t76.5 -32.5t32.5 -76.5t-32 -75t-77 -31q-44 0 -76 31t-32 75zM141 0v1087h226v-1087h-226zM307 1294q0 44 33.5 76.5t77.5 32.5t76 -32.5t32 -76.5t-32 -75t-76 -31q-45 0 -78 31t-33 75z" />
<glyph unicode="&#xf0;" horiz-adv-x="1236" d="M57 530q0 135 41.5 247.5t111.5 185.5t161.5 113t193.5 40q69 0 120.5 -13t107.5 -46l90 -121q-15 179 -125 301l-281 -96l-37 119l207 69q-59 40 -155 78l161 119q121 -53 209 -123l148 51l37 -119l-89 -28q97 -117 141 -282.5t44 -395.5q0 -117 -21 -215.5 t-59.5 -169.5t-89.5 -124t-113.5 -85.5t-129 -48t-138.5 -15.5q-131 0 -233.5 42t-168 117t-99.5 176.5t-34 223.5zM299 547q0 -194 77.5 -301t225.5 -107q136 0 219.5 101.5t83.5 291.5v60q0 89 -26 159t-70 111.5t-97 62.5t-112 21q-136 0 -218.5 -109.5t-82.5 -289.5z " />
<glyph unicode="&#xf1;" horiz-adv-x="1241" d="M141 0v1087h226v-182l73 127q62 48 125.5 66t149.5 18q172 0 272 -83t115 -228q6 -83 6 -193v-612h-225v588q0 98 -4 153q-8 98 -64 153.5t-166 55.5q-127 0 -204.5 -111t-77.5 -352v-487h-226zM387 1217q0 96 31 136t94 40t137 -29q68 -25 90 -25q18 0 25.5 10.5 t7.5 36.5h109q0 -98 -31.5 -138t-95.5 -40q-50 0 -138 29q-68 25 -90 25q-32 0 -32 -45h-107z" />
<glyph unicode="&#xf2;" horiz-adv-x="1218" d="M59 545q0 120 35 223t102 181t173.5 122.5t240.5 44.5q133 0 239.5 -44.5t173.5 -122.5t102.5 -181t35.5 -223t-35.5 -223.5t-102.5 -182t-173.5 -123.5t-239.5 -45q-134 0 -240.5 45t-173.5 123.5t-102 182t-35 223.5zM297 545q0 -187 83 -298.5t230 -111.5 q146 0 229 111.5t83 298.5t-83 297t-229 110q-147 0 -230 -110t-83 -297zM348 1417h205l141 -233h-135z" />
<glyph unicode="&#xf3;" horiz-adv-x="1218" d="M59 545q0 120 35 223t102 181t173.5 122.5t240.5 44.5q133 0 239.5 -44.5t173.5 -122.5t102.5 -181t35.5 -223t-35.5 -223.5t-102.5 -182t-173.5 -123.5t-239.5 -45q-134 0 -240.5 45t-173.5 123.5t-102 182t-35 223.5zM297 545q0 -187 83 -298.5t230 -111.5 q146 0 229 111.5t83 298.5t-83 297t-229 110q-147 0 -230 -110t-83 -297zM530 1184l140 233h204l-208 -233h-136z" />
<glyph unicode="&#xf4;" horiz-adv-x="1218" d="M59 545q0 120 35 223t102 181t173.5 122.5t240.5 44.5q133 0 239.5 -44.5t173.5 -122.5t102.5 -181t35.5 -223t-35.5 -223.5t-102.5 -182t-173.5 -123.5t-239.5 -45q-134 0 -240.5 45t-173.5 123.5t-102 182t-35 223.5zM297 545q0 -187 83 -298.5t230 -111.5 q146 0 229 111.5t83 298.5t-83 297t-229 110q-147 0 -230 -110t-83 -297zM393 1184l133 233h168l135 -233h-151l-70 133l-65 -133h-150z" />
<glyph unicode="&#xf5;" horiz-adv-x="1218" d="M59 545q0 120 35 223t102 181t173.5 122.5t240.5 44.5q133 0 239.5 -44.5t173.5 -122.5t102.5 -181t35.5 -223t-35.5 -223.5t-102.5 -182t-173.5 -123.5t-239.5 -45q-134 0 -240.5 45t-173.5 123.5t-102 182t-35 223.5zM297 545q0 -187 83 -298.5t230 -111.5 q146 0 229 111.5t83 298.5t-83 297t-229 110q-147 0 -230 -110t-83 -297zM362 1217q0 96 31.5 136t95.5 40q61 0 138 -29q68 -25 90 -25q33 0 33 47h106q0 -97 -31 -137.5t-94 -40.5q-51 0 -137 29q-68 25 -92 25q-31 0 -31 -45h-109z" />
<glyph unicode="&#xf6;" horiz-adv-x="1218" d="M59 545q0 120 35 223t102 181t173.5 122.5t240.5 44.5q133 0 239.5 -44.5t173.5 -122.5t102.5 -181t35.5 -223t-35.5 -223.5t-102.5 -182t-173.5 -123.5t-239.5 -45q-134 0 -240.5 45t-173.5 123.5t-102 182t-35 223.5zM297 545q0 -187 83 -298.5t230 -111.5 q146 0 229 111.5t83 298.5t-83 297t-229 110q-147 0 -230 -110t-83 -297zM338 1294q0 44 32 76.5t76 32.5t76.5 -32.5t32.5 -76.5t-32 -75t-77 -31q-44 0 -76 31t-32 75zM664 1294q0 44 32 76.5t76 32.5t77.5 -32.5t33.5 -76.5t-33 -75t-78 -31q-44 0 -76 31t-32 75z" />
<glyph unicode="&#xf7;" d="M168 586v135h895v-135h-895zM492 307q0 54 36 90.5t90 36.5t90.5 -36.5t36.5 -90.5t-36.5 -90.5t-90.5 -36.5t-90 36.5t-36 90.5zM492 991q0 54 36 90.5t90 36.5t90.5 -36.5t36.5 -90.5t-36.5 -90.5t-90.5 -36.5t-90 36.5t-36 90.5z" />
<glyph unicode="&#xf8;" horiz-adv-x="1280" d="M49 53l129 129q-104 146 -104 361q0 121 35 224.5t102 181.5t173.5 122.5t240.5 44.5q223 0 366 -121l139 138l99 -99l-146 -145q93 -146 93 -346q0 -120 -35 -222.5t-102 -181t-173.5 -123.5t-240.5 -45q-210 0 -351 109l-124 -125zM313 543q0 -109 31 -197l504 504 q-82 102 -223 102q-146 0 -229 -110.5t-83 -298.5zM418 221q80 -86 207 -86q146 0 229.5 111.5t83.5 296.5q0 96 -25 176z" />
<glyph unicode="&#xf9;" horiz-adv-x="1236" d="M125 440v647h223v-602q0 -76 8 -149q12 -92 72 -144.5t162 -52.5q127 0 201.5 105.5t74.5 330.5v512h224v-1087h-224v184l-75 -133q-63 -44 -126.5 -62t-148.5 -18q-161 0 -261 79t-120 198q-10 69 -10 192zM346 1417h205l141 -233h-135z" />
<glyph unicode="&#xfa;" horiz-adv-x="1236" d="M125 440v647h223v-602q0 -76 8 -149q12 -92 72 -144.5t162 -52.5q127 0 201.5 105.5t74.5 330.5v512h224v-1087h-224v184l-75 -133q-63 -44 -126.5 -62t-148.5 -18q-161 0 -261 79t-120 198q-10 69 -10 192zM526 1184l142 233h204l-210 -233h-136z" />
<glyph unicode="&#xfb;" horiz-adv-x="1236" d="M125 440v647h223v-602q0 -76 8 -149q12 -92 72 -144.5t162 -52.5q127 0 201.5 105.5t74.5 330.5v512h224v-1087h-224v184l-75 -133q-63 -44 -126.5 -62t-148.5 -18q-161 0 -261 79t-120 198q-10 69 -10 192zM389 1184l135 233h168l133 -233h-151l-68 133l-67 -133h-150z " />
<glyph unicode="&#xfc;" horiz-adv-x="1236" d="M125 440v647h223v-602q0 -76 8 -149q12 -92 72 -144.5t162 -52.5q127 0 201.5 105.5t74.5 330.5v512h224v-1087h-224v184l-75 -133q-63 -44 -126.5 -62t-148.5 -18q-161 0 -261 79t-120 198q-10 69 -10 192zM334 1294q0 44 33 76.5t77 32.5t76.5 -32.5t32.5 -76.5 t-32 -75t-77 -31t-77.5 31t-32.5 75zM662 1294q0 44 32 76.5t76 32.5t76.5 -32.5t32.5 -76.5t-32 -75t-77 -31q-44 0 -76 31t-32 75z" />
<glyph unicode="&#xfd;" horiz-adv-x="1099" d="M2 1087h252l299 -919l297 919h244l-443 -1157q-75 -194 -170 -277t-243 -83q-74 0 -107 6v166q27 -2 72 -2q79 0 132 39t89 131l16 37zM469 1184l139 233h205l-209 -233h-135z" />
<glyph unicode="&#xfe;" horiz-adv-x="1282" d="M141 -401v1906h226v-587l82 116q45 38 122.5 60t161.5 22q152 0 264 -72.5t169 -197t57 -283.5q0 -145 -42.5 -260t-116 -186.5t-167.5 -108.5t-201 -37q-71 0 -144.5 18.5t-113.5 49.5l-71 108v-548h-226zM367 500q0 -95 27 -168.5t71.5 -114.5t96.5 -61.5t108 -20.5 q140 0 227.5 106t87.5 302q0 182 -80.5 295.5t-224.5 113.5q-66 0 -120.5 -21.5t-98.5 -67t-69 -124t-25 -184.5v-55z" />
<glyph unicode="&#xff;" horiz-adv-x="1099" d="M2 1087h252l299 -919l297 919h244l-443 -1157q-75 -194 -170 -277t-243 -83q-74 0 -107 6v166q27 -2 72 -2q79 0 132 39t89 131l16 37zM276 1294q0 44 32.5 76.5t76.5 32.5t76.5 -32.5t32.5 -76.5t-32 -75t-77 -31t-77 31t-32 75zM602 1294q0 44 32.5 76.5t76.5 32.5 t77 -32.5t33 -76.5t-32.5 -75t-77.5 -31t-77 31t-32 75z" />
<glyph unicode="&#x152;" horiz-adv-x="2254" d="M100 707q0 211 77.5 377t225 262t342.5 96q151 0 245 -35t173 -121l58 -143v270h956v-178h-731v-438h674v-179h-674v-438h752v-180h-977v266l-58 -143q-78 -81 -178 -116.5t-240 -35.5q-194 0 -342 96.5t-225.5 263t-77.5 376.5zM342 707q0 -256 117.5 -410t322.5 -154 q204 0 321.5 154t117.5 410q0 258 -117.5 410.5t-321.5 152.5q-205 0 -322.5 -152t-117.5 -411z" />
<glyph unicode="&#x153;" horiz-adv-x="2015" d="M57 545q0 120 35.5 223t102.5 181t173.5 122.5t239.5 44.5q305 0 436 -248q128 248 416 248q150 0 261 -72.5t166 -195t55 -277.5q0 -22 -7 -90h-776q6 -90 30 -158t62.5 -108.5t85.5 -60t103 -19.5q101 0 170 57.5t86 159.5h229q-24 -125 -96 -212.5t-172 -128 t-221 -40.5q-276 0 -402 240q-129 -240 -426 -240q-133 0 -239.5 45t-173.5 123.5t-102.5 182t-35.5 223.5zM297 545q0 -187 83 -298.5t230 -111.5q146 0 229 111.5t83 298.5t-83 297t-229 110q-147 0 -230 -110t-83 -297zM1161 639h549q-14 153 -79.5 233t-182.5 80 q-119 0 -193.5 -80t-93.5 -233z" />
<glyph unicode="&#x178;" horiz-adv-x="1232" d="M37 1413h256l364 -653l353 653h250l-500 -860v-553h-223v553zM381 1610q0 44 32 76t76 32t76.5 -32t32.5 -76t-32.5 -76.5t-76.5 -32.5t-76 32.5t-32 76.5zM698 1610q0 44 32.5 76t76.5 32t76 -32t32 -76t-32 -76.5t-76 -32.5t-76.5 32.5t-32.5 76.5z" />
<glyph unicode="&#x2c6;" horiz-adv-x="614" d="M90 1184l135 233h166l135 -233h-151l-68 133l-67 -133h-150z" />
<glyph unicode="&#x2dc;" horiz-adv-x="614" d="M61 1217q0 96 31 136t94 40q64 0 138 -29q68 -25 90 -25q17 0 24.5 10.5t7.5 36.5h109q0 -98 -31.5 -138t-95.5 -40q-49 0 -137 29q-68 25 -90 25q-33 0 -33 -45h-107z" />
<glyph unicode="&#x2000;" horiz-adv-x="910" />
<glyph unicode="&#x2001;" horiz-adv-x="1821" />
<glyph unicode="&#x2002;" horiz-adv-x="910" />
<glyph unicode="&#x2003;" horiz-adv-x="1821" />
<glyph unicode="&#x2004;" horiz-adv-x="607" />
<glyph unicode="&#x2005;" horiz-adv-x="455" />
<glyph unicode="&#x2006;" horiz-adv-x="303" />
<glyph unicode="&#x2007;" horiz-adv-x="303" />
<glyph unicode="&#x2008;" horiz-adv-x="227" />
<glyph unicode="&#x2009;" horiz-adv-x="364" />
<glyph unicode="&#x200a;" horiz-adv-x="101" />
<glyph unicode="&#x2010;" horiz-adv-x="581" d="M66 512v135h450v-135h-450z" />
<glyph unicode="&#x2011;" horiz-adv-x="581" d="M66 512v135h450v-135h-450z" />
<glyph unicode="&#x2012;" horiz-adv-x="581" d="M66 512v135h450v-135h-450z" />
<glyph unicode="&#x2013;" horiz-adv-x="1024" d="M154 530v136h716v-136h-716z" />
<glyph unicode="&#x2014;" horiz-adv-x="2048" d="M154 530v136h1740v-136h-1740z" />
<glyph unicode="&#x2018;" horiz-adv-x="544" d="M113 971v20l200 514h189l-160 -534h-229z" />
<glyph unicode="&#x2019;" horiz-adv-x="544" d="M43 971l160 534h229v-20l-201 -514h-188z" />
<glyph unicode="&#x201a;" horiz-adv-x="501" d="M-63 -248l161 490h228v-21l-193 -469h-196z" />
<glyph unicode="&#x201c;" horiz-adv-x="927" d="M113 971v20l200 514h189l-160 -534h-229zM498 971v20l198 514h191l-162 -534h-227z" />
<glyph unicode="&#x201d;" horiz-adv-x="927" d="M43 971l160 534h229v-20l-201 -514h-188zM426 971l162 534h227v-20l-199 -514h-190z" />
<glyph unicode="&#x201e;" horiz-adv-x="886" d="M-63 -248l161 490h228v-21l-193 -469h-196zM322 -248l159 490h230v-21l-195 -469h-194z" />
<glyph unicode="&#x2022;" horiz-adv-x="759" d="M154 625q0 97 65 162t162 65q95 0 160 -65t65 -162t-65 -161.5t-160 -64.5q-97 0 -162 64.5t-65 161.5z" />
<glyph unicode="&#x2026;" horiz-adv-x="1402" d="M78 121q0 65 42 107t107 42t107.5 -42.5t42.5 -106.5q0 -65 -42.5 -107.5t-107.5 -42.5q-64 0 -106.5 42.5t-42.5 107.5zM528 121q0 64 42.5 106.5t107.5 42.5q64 0 106.5 -42t42.5 -107t-42.5 -107.5t-106.5 -42.5t-107 42.5t-43 107.5zM979 121q0 65 42.5 107t106.5 42 q65 0 107.5 -42.5t42.5 -106.5q0 -65 -43 -107.5t-107 -42.5t-106.5 42.5t-42.5 107.5z" />
<glyph unicode="&#x202f;" horiz-adv-x="364" />
<glyph unicode="&#x2039;" horiz-adv-x="829" d="M260 508l281 340h178l-281 -340l281 -340h-178z" />
<glyph unicode="&#x203a;" horiz-adv-x="811" d="M111 168l280 340l-280 340h178l280 -340l-280 -340h-178z" />
<glyph unicode="&#x205f;" horiz-adv-x="455" />
<glyph unicode="&#x20ac;" d="M66 514l24 135h117l-2 51q0 40 2 58h-98l24 135h86q43 274 205 411.5t407 137.5q240 0 355 -127l-96 -144q-99 99 -256 99q-314 0 -371 -377h573l-28 -135h-557l-2 -49q0 -42 2 -60h538l-22 -135h-506q30 -195 122 -283t248 -88q173 0 302 82v-176q-137 -78 -332 -78 q-125 0 -222 28.5t-173.5 91.5t-124.5 168.5t-66 254.5h-149z" />
<glyph unicode="&#x2122;" horiz-adv-x="1103" d="M43 1266v86h408v-86h-150v-332h-108v332h-150zM500 934v416h162l81 -312l84 312h158v-416h-108l4 291l-82 -283h-113l-78 281v-289h-108z" />
<glyph unicode="&#x25fc;" horiz-adv-x="1085" d="M0 0v1085h1085v-1085h-1085z" />
</font>
</defs>
</svg>
